首页 收藏 QQ群
 网站导航
开启辅助访问

QQ登录

只需一步,快速开始

扫一扫,访问微社区

立即注册 找回密码
查看: 104968|回复: 1078
[4K视频]

专业博彩评级网

  [复制链接]
发表于 2016-10-5 12:15 | 显示全部楼层 |阅读模式
[索尼4K演示片]冲浪(高码率 HEVC 60fps)[2160P/MP4/1.61GB]
Sony.4K.DEMO_Surfing.mp4_20161005_091659.600.jpg Sony.4K.DEMO_Surfing.mp4_20161005_091719.752.jpg Sony.4K.DEMO_Surfing.mp4_20161005_091734.193.jpg Sony.4K.DEMO_Surfing.mp4_20161005_092140.624.jpg Sony.4K.DEMO_Surfing.mp4_20161005_092206.184.jpg Sony.4K.DEMO_Surfing.mp4_20161005_092314.055.jpg Sony.4K.DEMO_Surfing.mp4_20161005_092447.776.jpg Sony.4K.DEMO_Surfing.mp4_20161005_092511.584.jpg Sony.4K.DEMO_Surfing.mp4_20161005_092558.616.jpg
General
Complete name : Sony.4K.DEMO_Surfing.mp4
Format : MPEG-4
Format version : Base Media
Codec ID : isom (isom)
File size : 1.61 GiB
Duration : 2 min 59 s
Overall bit rate mode : Variable
Overall bit rate : 77.4 Mbps
Encoded date : UTC 2015-01-26 04:33:07
Tagged date : UTC 2015-01-26 04:33:07

Video
ID : 1
Format : HEVC
Format/Info : High Efficiency Video Coding
Format profile : [email protected]@Main
Codec ID : hvc1
Codec ID/Info : High Efficiency Video Coding
Duration : 2 min 59 s
Bit rate : 77.2 Mbps
Maximum bit rate : 118 Mbps
Width : 3840 pixels
Height : 2160 pixels
Display aspect ratio : 16:9
Frame rate mode : Constant
Frame rate : 59.940 (60000/1001) FPS
Color space : YUV
Chroma subsampling : 4:2:0
Bit depth : 8 bits
Bits/(Pixel*Frame) : 0.155
Stream size : 1.61 GiB (100%)
Encoded date : UTC 2015-01-26 04:32:42
Tagged date : UTC 2015-01-26 04:33:09
Color range : Limited
Color primaries : BT.709
Transfer characteristics : BT.709
Matrix coefficients : BT.709

Audio
ID : 2
Format : AAC
Format/Info : Advanced Audio Codec
Mode extension : LC
Codec ID : 40
Duration : 2 min 59 s
Source duration : 2 min 59 s
Bit rate mode : Variable
Bit rate : 192 Kbps
Maximum bit rate : 197 Kbps
Channel(s) : 2 channels
Channel positions : Front: L  R
Sampling rate : 48.0 KHz
Frame rate : 46.875 FPS (1024 spf)
Compression mode : Lossy
Stream size : 4.10 MiB (0%)
Source stream size : 4.10 MiB (0%)
Language : English
Encoded date : UTC 2015-01-26 04:32:42
Tagged date : UTC 2015-01-26 04:33:09
播放器 : Potplaye/MPC-HC
建议在大屏幕电视上观看才能体验最佳效果

MP4百度云盘
游客,如果您要查看本帖隐藏内容请回复
发表于 2016-10-5 13:02 | 显示全部楼层
不错的资源,收了
回复 支持 反对

使用道具 举报

发表于 2016-10-5 15:07 | 显示全部楼层
正需要啊,感谢楼主无私分享!
回复 支持 反对

使用道具 举报

发表于 2016-10-5 16:25 | 显示全部楼层
虽不明,但觉厉!
回复 支持 反对

使用道具 举报

发表于 2016-10-5 17:21 | 显示全部楼层
小手一抖,金币拿走。
回复 支持 反对

使用道具 举报

发表于 2016-10-5 17:54 | 显示全部楼层
强烈支持楼主ing……
回复 支持 反对

使用道具 举报

发表于 2016-10-5 18:07 | 显示全部楼层
好资源,谢谢
回复 支持 反对

使用道具 举报

发表于 2016-10-5 19:09 | 显示全部楼层
感谢楼主分享
回复 支持 反对

使用道具 举报

发表于 2016-10-5 19:52 | 显示全部楼层
精华内容,楼主V5!
回复 支持 反对

使用道具 举报

发表于 2016-10-5 20:00 来自ZNDS手机版 | 显示全部楼层
多谢楼主,4K有你更精彩
回复 支持 反对

使用道具 举报

您需要登录后才可以回帖 登录 | 立即注册

本版积分规则

关闭

推荐应用 上一条 /6 下一条

Archiver|新帖|标签|软件|Sitemap|ZNDS智能电视网 ( 浙ICP备14000780号 )

增值电信业务经营许可证:浙B2-20150411 丨 浙公网安备 33010802006145号

浙网文(2016)6491-366号 | GMT+8, 2018-7-16 04:49 , Processed in 0.071304 second(s), 20 queries , MemCache On.

Powered by Discuz!

监督举报:report#babyoiled.com (请将#替换为@)

© 2007-2018 babyoiled.com

快速回复 返回顶部 返回列表