首页 收藏 QQ群
 网站导航
开启辅助访问

QQ登录

只需一步,快速开始

扫一扫,访问微社区

立即注册 找回密码
查看: 62569|回复: 286
[4K视频]

专业博彩评级网

  [复制链接]
发表于 2016-9-27 05:36 | 显示全部楼层 |阅读模式
2016 TCL UHD 4K 演示片 - 波兰项目 [2160P/MP4/478MB]
TCL_UHD_4K_DEMO_Project_Poland_2016_photo_1.jpg TCL_UHD_4K_DEMO_Project_Poland_2016_photo_2.jpg TCL_UHD_4K_DEMO_Project_Poland_2016_photo_3.jpg TCL_UHD_4K_DEMO_Project_Poland_2016_photo_4.jpg TCL_UHD_4K_DEMO_Project_Poland_2016_photo_5.jpg TCL_UHD_4K_DEMO_Project_Poland_2016_photo_6.jpg TCL_UHD_4K_DEMO_Project_Poland_2016_photo_7.jpg TCL_UHD_4K_DEMO_Project_Poland_2016_photo_8.jpg TCL_UHD_4K_DEMO_Project_Poland_2016_photo_9.jpg TCL_UHD_4K_DEMO_Project_Poland_2016_photo_10.jpg TCL_UHD_4K_DEMO_Project_Poland_2016_photo_11.jpg TCL_UHD_4K_DEMO_Project_Poland_2016_photo_12.jpg TCL_UHD_4K_DEMO_Project_Poland_2016_photo_13.jpg TCL_UHD_4K_DEMO_Project_Poland_2016_photo_14.jpg TCL_UHD_4K_DEMO_Project_Poland_2016_photo_15.jpg TCL_UHD_4K_DEMO_Project_Poland_2016_photo_16.jpg
General
Complete name : TCL_UHD_4K_DEMO_Project_Poland_2016.mp4
Format : MPEG-4
Format version : Base Media / Version 2
Codec ID : mp42 (mp42/mp41/isom/avc1)
File size : 478 MiB
Duration : 3 min 38 s
Overall bit rate mode : Variable
Overall bit rate : 18.3 Mbps
Encoded date : UTC 2016-01-18 18:23:43
Tagged date : UTC 2016-01-18 18:23:43

Video
ID : 1
Format : AVC
Format/Info : Advanced Video Codec
Format profile : [email protected]
Format settings, CABAC : Yes
Format settings, ReFrames : 5 frames
Codec ID : avc1
Codec ID/lnfo : Advanced Video Coding
Duration : 3 min 38 s
Bit rate : 18.0 Mbps
Width : 3840 pixels
Height : 2160 pixels
Display aspect ratio : 16:9
Frame rate mode : Constant
Frame rate : 30.000 FPS
Color space : YUV
Chroma subsampling : 4:2:0
Bit depth : 8 bits
Scan type : Progressive
Bits/(Pixel*Frame) : 0.073
Stream size : 471 MiB (99%)
Writing library : x264 core 148 r11 7599210
Encoding settings : cabac=1 / ref=5 / deblock=1:0:0 / analyse=0x3:0x113 / me=umh / subme=8 / psy=1 /  psy_rd=1.00:0.00 / mixed_ref=1 / me_range=16 / chroma_me=1 / trellis=1 / 8x8dct=1 / cqm=0 / deadzone=21,11 / fast_pskip=1 / chroma_qp_offset=-2 / threads=67 /
Encoded date : UTC 2016-01-18 18:23:43
Tagged date : UTC 2016-01-18 18:23:43
Color range : Limited
Color primaries : BT.709
Transfer characteristics : BT.709
Matrix coefficients : BT.709

Audio
ID : 2
Format : AAC
Format/Info : Advanced Audio Codec
Mode extension : LC
Codec ID : 40
Duration : 3 min 38 s
Bit rate mode : Variable
Bit rate : 256 Kbps
Channel(s) : 2 channels
Channel positions : Front: L  R
Sampling rate : 48.0 KHz
Frame rate : 46.875 FPS (1024 spf)
Compression mode : Lossy
Stream size : 6.68 MiB (1%)
Encoded date : UTC 2016-01-18 18:23:43
Tagged date : UTC 2016-01-18 18:23:43
建议在大屏幕电视上观看才能体验最佳效果

MP4百度云盘
游客,如果您要查看本帖隐藏内容请回复

上一篇:[4K高清]樹林廟會 魅力無限的超正美女 Miffy & UP Down[2160P/MP4/...
下一篇:2016 创维 UHD 4K 演示片 - 圣托里尼岛美食之旅 [2160P/MP4/796MB]
发表于 2016-9-27 07:14 | 显示全部楼层
谢谢
回复 支持 反对

使用道具 举报

发表于 2016-9-27 08:59 | 显示全部楼层
楼主辛苦了
回复 支持 反对

使用道具 举报

发表于 2016-9-27 09:08 | 显示全部楼层
正需要啊,感谢楼主无私分享!
回复 支持 反对

使用道具 举报

发表于 2016-9-27 09:10 | 显示全部楼层
精华内容,楼主V5!
回复 支持 反对

使用道具 举报

发表于 2016-9-27 11:55 | 显示全部楼层
感谢分享,ZNDS有你更精彩:)
回复 支持 反对

使用道具 举报

发表于 2016-9-27 12:27 | 显示全部楼层
谢谢分享
回复 支持 反对

使用道具 举报

发表于 2016-9-27 12:47 | 显示全部楼层
强烈支持楼主ing……
回复 支持 反对

使用道具 举报

发表于 2016-9-27 21:06 | 显示全部楼层
强烈支持楼主ing……
回复 支持 反对

使用道具 举报

发表于 2016-9-27 21:35 | 显示全部楼层
88888888888888888
回复 支持 反对

使用道具 举报

您需要登录后才可以回帖 登录 | 立即注册

本版积分规则

关闭

推荐应用 上一条 /6 下一条

Archiver|新帖|标签|软件|Sitemap|ZNDS智能电视网 ( 浙ICP备14000780号 )

增值电信业务经营许可证:浙B2-20150411 丨 浙公网安备 33010802006145号

浙网文(2016)6491-366号 | GMT+8, 2019-1-19 09:10 , Processed in 0.094605 second(s), 22 queries , MemCache On.

Powered by Discuz!

监督举报:report#babyoiled.com (请将#替换为@)

© 2007-2019 babyoiled.com

快速回复 返回顶部 返回列表