首页 收藏 QQ群
 网站导航
开启辅助访问

QQ登录

只需一步,快速开始

扫一扫,访问微社区

立即注册 找回密码
查看: 50073|回复: 217
[4K视频]

专业博彩评级网

  [复制链接]
发表于 2018-4-28 16:33 | 显示全部楼层 |阅读模式
本帖最后由 hao501802766 于 2018-5-5 16:14 编辑

  各位老铁时隔两年我又回来发帖了,相信很多老铁在购买现在的4K电视的时候都会看HDR功能。价格上到几万或者3~4千无论哪个品牌的电视都带有HDR功能。实质上主要有两种HDR,HDR10与Dolby vision,当然还有一种HLG。我们说说目前网上可能下载到的HDR电影类型来说主要是HDR10与Dolby vision。
      首先是最常见的HDR10,下面的信息大家用电脑专业博彩评级网完美解码播放器就能查看:
                                           ID                          : 1
Format                      : HEVC
Format/Info                 : High Efficiency Video Coding
Format profile              : Main [email protected]@High
Codec ID                    : hvc1
Codec ID/Info               : High Efficiency Video Coding
Duration                    : 1mn 54s
Source duration             : 1mn 54s
Bit rate                    : 38.5 Mbps
Maximum bit rate            : 53.6 Mbps
Width                       : 3 840 pixels
Height                      : 2 160 pixels
Display aspect ratio        : 16:9
Frame rate mode             : Constant
Frame rate                  : 29.970 (30000/1001) fps
Color space                 : YUV
Chroma subsampling          : 4:2:0 (Type 2)
Bit depth                   : 10 bits
Bits/(Pixel*Frame)          : 0.155
Stream size                 : 524 MiB (96%)
Source stream size          : 546 MiB (100%)
Encoded date                : UTC 2016-06-24 08:20:18
Tagged date                 : UTC 2016-06-24 08:20:24
Color range                 : Limited
Color primaries             : BT.2020
Transfer characteristics    : SMPTE ST 2084
Matrix coefficients         : BT.2020 non-constant
Mastering display color pri : R: x=0.708000 y=0.292000, G: x=0.170000 y=0.797000, B: x=0.131000 y=0.046000, White point: x=0.312700 y=0.329000
Mastering display luminance : min: 0.0035 cd/m2, max: 1125.4000 cd/m2
Maximum Content Light Level : 40000 cd/m2
Maximum Frame-Average Light : 800 cd/m2


这一大摞的文字不用多看我们主要看是否有 olor primaries             : BT.2020   、  ransfer characteristics    : SMPTE ST 2084  、 atrix coefficients         : BT.2020 non-constant 这三项就足够能判定是否HDR 10的视频了。

   
   而Dolby vision呢,我给大家看看它的信息。这是我最近刚弄到小样片。完全无法从信息上判定。可以确定的是用电脑是无法播放的、必须有Dolby授权的播放设备才能正常播放。音频要么是DTS、要么是E-AC-3  5.1声道。当然在网上我目前还没下载到有带Dolby vision的电影。

Format                      : HEVC
Format/Info                 : High Efficiency Video Coding
Format profile              : Main [email protected]@Main
Codec ID                    : dvhe
Duration                    : 2 min 12 s
Bit rate                    : 34.5 Mb/s
Width                       : 3 840 pixels
Height                      : 2 160 pixels
Display aspect ratio        : 16:9
Frame rate mode             : Constant
Frame rate                  : 23.976 (24000/1001) FPS
Color space                 : YUV
Chroma subsampling          : 4:2:0
Bit depth                   : 10 bits
Bits/(Pixel*Frame)          : 0.174
Stream size                 : 547 MiB (98%)
Encoded date                : UTC 2018-02-22 05:28:16
Tagged date                 : UTC 2018-02-22 05:28:16
Audio
ID                          : 2
Format                      : E-AC-3
Format/Info                 : Enhanced Audio Coding 3
Format settings, Endianness : Big
Codec ID                    : ec-3
Duration                    : 2 min 11 s
Bit rate mode               : Constant
Bit rate                    : 640 kb/s
Channel(s)                  : 6 channels
Channel positions           : Front: L C R, Side: L R, LFE
Sampling rate               : 48.0 kHz
Frame rate                  : 187.500 FPS (256 spf)
Bit depth                   : 16 bits
Compression mode            : Lossy
Stream size                 : 10.0 MiB (2%)
Encoded date                : UTC 2018-02-22 05:28:16
Tagged date                 : UTC 2018-02-22 05:28:16

下面我附上自制的HDR10小样片。还有在本网站下载的长城7分钟小片正在制作,由于制作过程繁杂。本人电脑配置太低正在缓慢进行。
QQ截图20180428162921.png
QQ截图20180428162956.png
QQ截图20180428163009.png
QQ截图20180428163043.png

链接:https://pan.baidu.com/s/10u4yLmHANNOKNeSQzYFlvg
游客,如果您要查看本帖隐藏内容请回复


评分

参与人数 3威望 +17 金币 +26 Z币 +8 收起 理由
山阴路的夏天 + 5 + 6 + 2 ZNDS有你更精彩:)
kingtt1994 + 6 + 10 + 3 ZNDS有你更精彩:)
hao501802766 + 6 + 10 + 3 前排膜拜大神

查看全部评分


上一篇:看图片澳门十大博彩娱乐网址演示视频叫什么名字。
下一篇:【4kHDR视频】自制4KHDR长城【HDR/2160P/7分钟/百度云盘】带原...
 楼主| 发表于 2018-4-28 16:36 | 显示全部楼层
大家可以用带有HDR功能的电视与没有HDR功能的播放器播放就能看出效果。
发表于 2018-4-28 16:36 | 显示全部楼层
感谢楼主分享,新技能+1
发表于 2018-4-28 17:50 | 显示全部楼层
老铁666!必须支持一波!
发表于 2018-4-29 14:07 | 显示全部楼层
下来测试下微投
回复 支持 反对

使用道具 举报

发表于 2018-4-29 14:23 | 显示全部楼层
谢谢分享。
回复 支持 反对

使用道具 举报

发表于 2018-4-29 15:27 | 显示全部楼层
老铁666!必须支持一波!
回复 支持 反对

使用道具 举报

发表于 2018-4-29 15:47 | 显示全部楼层
又见一个好帖,果断先马克mark收藏了!
回复 支持 反对

使用道具 举报

发表于 2018-4-29 16:07 | 显示全部楼层
下来试试,谢谢楼主
回复 支持 反对

使用道具 举报

发表于 2018-4-29 22:32 | 显示全部楼层
fchh ,非常好,看看
回复 支持 反对

使用道具 举报

您需要登录后才可以回帖 登录 | 立即注册

本版积分规则

关闭

推荐应用 上一条 /6 下一条

Archiver|新帖|标签|软件|Sitemap|ZNDS智能电视网 ( 浙ICP备14000780号 )

增值电信业务经营许可证:浙B2-20150411 丨 浙公网安备 33010802006145号

浙网文(2016)6491-366号 | GMT+8, 2018-11-17 19:39 , Processed in 0.148177 second(s), 44 queries .

Powered by Discuz!

监督举报:report#babyoiled.com (请将#替换为@)

© 2007-2018 babyoiled.com

快速回复 返回顶部 返回列表